0 walking dead venom ETTV WINDOWS 10 survivor 1080p 2018 movies Venom 2018 titans south park s22e08 modern family 2160p the big bang theory mkv ita evo 1080p 2018 empire Riverdale S03E06 etrg The Walking dead HDChina this is us s03e09 riverdale NCIS xxx The Last Kingdom big bang theory Arrow 1 etmovies ita family guy black mirror ita Lethal Weapon fgt manifest legends of tomorrow survivor s37e10 blindspot south park ddr Survivor s37e10 720p vikings ethd wwe Supergirl yify bohemian rhapsody a million little things S01E08 supernatural dtone EtHD great british bake off s09e10 Christmas the flash the witcher game of thrones HINDI vikings s05e11 it modern family s10e08 the flash s05e07 The Gifted s02e08 2018 ITA ita 2018 VIKINGS S05 the predator 1080p YIFY 2 
Warning! Do not Download Without a VPN!
Your IP Address is .   Location is
Download and surf securely, stream unlimited and protect your personal data!
We strongly recommend using SpyOFF VPN!
Become Anonymous with SpyOFF
ETTV Recommended TV Shows
Supernatural.S14E07.HDTV.x264-SVA[ettv] torrent
Legacies.S01E05.HDTV.x264-SVA[ettv] torrent
Law.and.Order.SVU.S20E10.HDTV.x264-SVA[ettv] torrent
S.W.A.T.2017.S02E09.HDTV.x264-SVA[ettv] torrent

ETTV Recommended Xvid
Bodied.2018.HDRip.XviD.AC3-EVO[EtMovies] torrent
Halloween.2018.HC.HDRip.XViD.AC3-ETRG torrent
Blood.Brother.2018.HDRip.XViD-ETRG torrent
All.The.Devils.Men.2018.HDRip.XviD.AC3-EVO[EtMovies] torrent

ETTV Recommended HD
At.First.Light.2018.BluRay.1080p.AAC.x264-MPAD[EtHD] torrent
The.Little.Stranger.2018.BluRay.1080p.x264.DTS-HD.MA.5.1-HDChina[EtHD] torrent
HARRY POTTER COMPLETE SAGA BluRay 1080p QEBS AAC PS3 MP4-FASM torrent
Blood.Brother.2018.1080p.WEB-DL.H264.AC3-EVO[EtHD] torrent

ETTV Recommended UHD
Mission Impossible - Fallout.2018.IMAX.Muti.UHD.2160p.Bluray.x265.Atmos.7.1[En+Hi+]-DTOne torrent
Escape From Newyork 1981.Multi.mUHD.2160p.x265.HDR.DD.5.1-DTOne torrent
Justice.League.Throne.of.Atlantis.2015.Multi.2160p.mUHD.BluRay.x265.HDR.HEVC.DD.5.1-DTOne torrent
Philadelphia.1993.Multi.mUHD.2160p.Bluray.x265.HEVC.HDR.DD.5.1-DTOne torrent

ETTV Recommended Cam
Widows.2018.HDCAM.XViD.AC3-ETRG torrent
Robin Hood 2018.HDCAM.XViD.AC3-ETRG torrent
Ralph Breaks the Internet 2018 HDCAM New Audio XViD AC3-ETRG torrent
Bohemian Rhapsody 2018 HDTS.x264.AC3-ETRG torrent

ETTV Recommended Foreign
Vada Chennai (2018) [TAMIL - 720p - WEB HDRip - x264 - DD 5.1 - ESub - 2GB] - MAZE torrent
Lukas.2018.1080p.AMZN.WEB-DL.DDP5.1.H.264-MZABI[EtHD] torrent
Tumbbad (2018) Hindi 720p WEB-Rip x264 AAC 5.1 - ESUB ~ Ranvijay torrent
2.0.(2018).Untouched.NTSC.Desi.Pre.DVDR-DTOne.Exclusive torrent

Social


Download Torrent "The Jim Gaffigan Show (2015) Season 02 S02 (1080p WEB-DL x265 HEVC 10bit AA..."

IMDB Details
Description:

N/A

Genre:

N/A

Download Torrent (Magnet)
Download Torrent (File)
Seeds: 4
Leechers: 0
Completed:
Last Checked: 30-11-2018 12:40:48


Loading...
Details
Title:The Jim Gaffigan Show (2015) Season 02 S02 (1080p WEB-DL x265 HEVC 10bit AA...
Description:







Media Information
General
Format                                   : Matroska
Format version                           : Version 4 / Version 2
File size                                : 383 MiB
Duration                                 : 21 min 33 s
Overall bit rate                         : 2 482 kb/s
Encoded date                             : UTC 2018-11-29 18:39:13
Writing application                      : mkvmerge v27.0.0 ('Metropolis') 64-bit
Writing library                          : libebml v1.3.6 + libmatroska v1.4.9

Video
ID                                       : 1
Format                                   : HEVC
Format/Info                              : High Efficiency Video Coding
Format profile                           : Main [email protected]@Main
Codec ID                                 : V_MPEGH/ISO/HEVC
Duration                                 : 21 min 33 s
Bit rate                                 : 2 327 kb/s
Width                                    : 1 916 pixels
Height                                   : 1 076 pixels
Display aspect ratio                     : 16:9
Frame rate mode                          : Constant
Frame rate                               : 23.976 (24000/1001) FPS
Color space                              : YUV
Chroma subsampling                       : 4:2:0
Bit depth                                : 10 bits
Bits/(Pixel*Frame)                       : 0.047
Stream size                              : 359 MiB (94%)
Writing library                          : x265 2.9+8-27d8424c799d:[Windows][MSVC 1915][64 bit] 10bit
Encoding settings                        : cpuid=1111039 / frame-threads=4 / numa-pools=16 / wpp / no-pmode / no-pme / no-psnr / no-ssim / log-level=2 / input-csp=1 / input-res=1916x1076 / interlace=0 / total-frames=31019 / level-idc=0 / high-tier=1 / uhd-bd=0 / ref=4 / no-allow-non-conformance / no-repeat-headers / annexb / no-aud / no-hrd / info / hash=0 / no-temporal-layers / open-gop / min-keyint=23 / keyint=250 / gop-lookahead=0 / bframes=4 / b-adapt=2 / b-pyramid / bframe-bias=0 / rc-lookahead=25 / lookahead-slices=4 / scenecut=40 / radl=0 / no-intra-refresh / ctu=64 / min-cu-size=8 / no-rect / no-amp / max-tu-size=32 / tu-inter-depth=1 / tu-intra-depth=1 / limit-tu=0 / rdoq-level=1 / dynamic-rd=0.00 / no-ssim-rd / signhide / no-tskip / nr-intra=0 / nr-inter=0 / no-constrained-intra / no-strong-intra-smoothing / max-merge=3 / limit-refs=3 / limit-modes / me=3 / subme=3 / merange=57 / temporal-mvp / weightp / no-weightb / no-analyze-src-pics / deblock=-1:-1 / sao / no-sao-non-deblock / rd=4 / no-early-skip / rskip / no-fast-intra / no-tskip-fast / no-cu-lossless / no-b-intra / no-splitrd-skip / rdpenalty=0 / psy-rd=0.75 / psy-rdoq=1.00 / no-rd-refine / no-lossless / cbqpoffs=0 / crqpoffs=0 / rc=crf / crf=22.0 / qcomp=0.60 / qpstep=4 / stats-write=0 / stats-read=0 / ipratio=1.40 / pbratio=1.30 / aq-mode=1 / aq-strength=1.00 / cutree / zone-count=0 / no-strict-cbr / qg-size=32 / no-rc-grain / qpmax=69 / qpmin=0 / no-const-vbv / sar=0 / overscan=0 / videoformat=5 / range=0 / colorprim=2 / transfer=2 / colormatrix=2 / chromaloc=0 / display-window=0 / max-cll=0,0 / min-luma=0 / max-luma=1023 / log2-max-poc-lsb=8 / vui-timing-info / vui-hrd-info / slices=1 / no-opt-qp-pps / no-opt-ref-list-length-pps / no-multi-pass-opt-rps / scenecut-bias=0.05 / no-opt-cu-delta-qp / no-aq-motion / no-hdr / no-hdr-opt / no-dhdr10-opt / no-idr-recovery-sei / analysis-reuse-level=5 / scale-factor=0 / refine-intra=0 / refine-inter=0 / refine-mv=0 / no-limit-sao / ctu-info=0 / no-lowpass-dct / refine-mv-type=0 / copy-pic=1 / max-ausize-factor=1.0 / no-dynamic-refine / no-single-sei
Language                                 : English
Default                                  : Yes
Forced                                   : No

Audio
ID                                       : 2
Format                                   : AAC
Format/Info                              : Advanced Audio Codec
Format profile                           : LC
Codec ID                                 : A_AAC
Duration                                 : 21 min 33 s
Bit rate                                 : 153 kb/s
Channel(s)                               : 2 channels
Channel positions                        : Front: L R
Sampling rate                            : 48.0 kHz
Frame rate                               : 46.875 FPS (1024 spf)
Compression mode                         : Lossy
Stream size                              : 23.5 MiB (6%)
Language                                 : English
Default                                  : Yes
Forced                                   : No

Subtitle
ID                                       : 3
Format                                   : UTF-8
Codec ID                                 : S_TEXT/UTF8
Codec ID/Info                            : UTF-8 Plain Text
Duration                                 : 21 min 20 s
Bit rate                                 : 92 b/s
Count of elements                        : 514
Stream size                              : 14.4 KiB (0%)
Language                                 : English
Default                                  : Yes
Forced                                   : No

Source Information
Release: Unknown Source/NO-GROUP


Category:TV > HEVC/x265
Lang:English  English
Total Size:3.93 GB
Info Hash:442fc3c3f8a3f83ca381671bd010b61299e1240c
Added By:UTR
Date Added:30-11-2018 12:40:39

Files

File List: 
 File Size
The.Jim.Gaffigan.Show.S02E01.1080p.WEB-DL.x265.10bit.AAC.2.0-Qman[UTR].mkv383 MB
The.Jim.Gaffigan.Show.S02E02.1080p.WEB-DL.x265.10bit.AAC.2.0-Qman[UTR].mkv275 MB
The.Jim.Gaffigan.Show.S02E03.1080p.WEB-DL.x265.10bit.AAC.2.0-Qman[UTR].mkv411 MB
The.Jim.Gaffigan.Show.S02E04.1080p.WEB-DL.x265.10bit.AAC.2.0-Qman[UTR].mkv332 MB
The.Jim.Gaffigan.Show.S02E05.1080p.WEB-DL.x265.10bit.AAC.2.0-Qman[UTR].mkv330 MB
The.Jim.Gaffigan.Show.S02E06.1080p.WEB-DL.x265.10bit.AAC.2.0-Qman[UTR].mkv359 MB
The.Jim.Gaffigan.Show.S02E07.1080p.WEB-DL.x265.10bit.AAC.2.0-Qman[UTR].mkv352 MB
The.Jim.Gaffigan.Show.S02E08.1080p.WEB-DL.x265.10bit.AAC.2.0-Qman[UTR].mkv275 MB
The.Jim.Gaffigan.Show.S02E09.1080p.WEB-DL.x265.10bit.AAC.2.0-Qman[UTR].mkv278 MB
The.Jim.Gaffigan.Show.S02E10.1080p.WEB-DL.x265.10bit.AAC.2.0-Qman[UTR].mkv409 MB
The.Jim.Gaffigan.Show.S02E11.1080p.WEB-DL.x265.10bit.AAC.2.0-Qman[UTR].mkv286 MB
The.Jim.Gaffigan.Show.S02E12.1080p.WEB-DL.x265.10bit.AAC.2.0-Qman[UTR].mkv336 MB



Loading...
Comments

There are currently no comments. Be the first one to write something !

Disclaimer: None of the files shown here are actually hosted or transmitted by this server. The links are provided solely by this site's users. The site moderation is also a service provided by the site's users. The administrator of this site (ettv.tv) cannot be held responsible for what its users post, or any other actions of its users. You may not use this site to distribute or download any material when you do not have the legal rights to do so. It is your own responsibility to adhere to these terms.

SitemapEmpire (107) | 一千零一夜 | Price Lowest